Bu torrent için 0.4 gönderme oranı mecburidir.
Teen Beach Movie - Genclik Plaji Filmi 2013 TR DVB

Genişletmek için Tıkla!
16-11-2013 14:36 , LordOfRip Tarafından Yüklendi.
Kaynaklar: 1 / İndirilen: 0 / Boyut: 694.59 MB / Tamamlandı: 100
Torrenti İndir  Torrenti Şikayet Et Torrent Tanımı Tanıtım Videosu
IMDB Puanı: 6.0 6.0/10 Kategori: Komedi | Romantik
Kategori: Türkçe Filmler > Divx Xvid / Türkçe
http://www.imdb.com/title/tt2325989/

Teen Beach Movie - Genclik Plaji Filmi 2013 TR DVB





İki genç sörf ustası yazın son dalgalarında denizin tadını çıkartmaktadır. Dalgalar onları gizemli bri şekilde bir plaj partisinin ortasına götürür. Gittikleri yerde motorcular ve plaja hakim olmak isteyen sörfçüler arasında inanılmaz bir rekabet oluşur. Ancak bu filmden kurtulamazlarsa belkide hayatları sonsuza kadar değişecektir. kurtulmanın yolunu aramaları şart olur




Genişlet Kod:

General
Complete name : C:\Users\Abdullah ÇİMEN\Desktop\Yeni klasör\sunulan\Genclik Plaji Filmi (2013)\Teen Beach Movie - Genclik Plaji Filmi 2013 DVB.avi
Format : AVI
Format/Info : Audio Video Interleave
File size : 695 MiB
Duration : 1h 35mn
Overall bit rate : 1 021 Kbps
Writing application : VirtualDubMod 1.5.10.2 (build 2542/release)
Writing library : VirtualDubMod build 2542/release
Video
ID : 0
Format : MPEG-4 Visual
Format profile : Advanced Simple@L5
Format settings, BVOP : 2
Format settings, QPel : No
Format settings, GMC : No warppoints
Format settings, Matrix : Custom
Muxing mode : Packed bitstream
Codec ID : XVID
Codec ID/Hint : XviD
Duration : 1h 35mn
Bit rate : 884 Kbps
Width : 672 pixels
Height : 384 pixels
Display aspect ratio : 16:9
Frame rate : 23.976 fps
Color space : YUV
Chroma subsampling : 4:2:0
Bit depth : 8 bits
Scan type : Progressive
Compression mode : Lossy
Bits/(Pixel*Frame) : 0.143
Stream size : 601 MiB (87%)
Writing library : XviD 1.1.2 (UTC 2006-11-01)
Audio
ID : 1
Format : MPEG Audio
Format version : Version 1
Format profile : Layer 3
Mode : Joint stereo
Codec ID : 55
Codec ID/Hint : MP3
Duration : 1h 35mn
Bit rate mode : Constant
Bit rate : 128 Kbps
Channel count : 2 channels
Sampling rate : 48.0 KHz
Compression mode : Lossy
Stream size : 87.0 MiB (13%)
Alignment : Aligned on interleaves
Interleave, duration : 42 ms (1.00 video frame)
Interleave, preload duration : 504 ms

twism, 01can1071, dilekka ve diger 30 kisi bunu begendi.

Teen Beach Movie - Genclik Plaji Filmi 2013 TR DVB





İki genç sörf ustası yazın son dalgalarında denizin tadını çıkartmaktadır. Dalgalar onları gizemli bri şekilde bir plaj partisinin ortasına götürür. Gittikleri yerde motorcular ve plaja hakim olmak isteyen sörfçüler arasında inanılmaz bir rekabet oluşur. Ancak bu filmden kurtulamazlarsa belkide hayatları sonsuza kadar değişecektir. kurtulmanın yolunu aramaları şart olur




Genişlet Kod:

General
Complete name : C:\Users\Abdullah ÇİMEN\Desktop\Yeni klasör\sunulan\Genclik Plaji Filmi (2013)\Teen Beach Movie - Genclik Plaji Filmi 2013 DVB.avi
Format : AVI
Format/Info : Audio Video Interleave
File size : 695 MiB
Duration : 1h 35mn
Overall bit rate : 1 021 Kbps
Writing application : VirtualDubMod 1.5.10.2 (build 2542/release)
Writing library : VirtualDubMod build 2542/release
Video
ID : 0
Format : MPEG-4 Visual
Format profile : Advanced Simple@L5
Format settings, BVOP : 2
Format settings, QPel : No
Format settings, GMC : No warppoints
Format settings, Matrix : Custom
Muxing mode : Packed bitstream
Codec ID : XVID
Codec ID/Hint : XviD
Duration : 1h 35mn
Bit rate : 884 Kbps
Width : 672 pixels
Height : 384 pixels
Display aspect ratio : 16:9
Frame rate : 23.976 fps
Color space : YUV
Chroma subsampling : 4:2:0
Bit depth : 8 bits
Scan type : Progressive
Compression mode : Lossy
Bits/(Pixel*Frame) : 0.143
Stream size : 601 MiB (87%)
Writing library : XviD 1.1.2 (UTC 2006-11-01)
Audio
ID : 1
Format : MPEG Audio
Format version : Version 1
Format profile : Layer 3
Mode : Joint stereo
Codec ID : 55
Codec ID/Hint : MP3
Duration : 1h 35mn
Bit rate mode : Constant
Bit rate : 128 Kbps
Channel count : 2 channels
Sampling rate : 48.0 KHz
Compression mode : Lossy
Stream size : 87.0 MiB (13%)
Alignment : Aligned on interleaves
Interleave, duration : 42 ms (1.00 video frame)
Interleave, preload duration : 504 ms

Paylaşım için teşekkürler
heramis 16-11-2013 14:38
coolgezgin59, salexih, kkaplannet ve diger 2 kisi bunu begendi.
teşekkürler
bycoo32 16-11-2013 17:27
coolgezgin59, salexih, kkaplannet ve diger 2 kisi bunu begendi.
teşekkürler
kkaplannet 16-11-2013 23:20
cron32, coolgezgin59, LordOfRip ve diger 1 kisi bunu begendi.
IMDB Yenile
Teen Beach Movie (2013)
110 Dakika - Family | Musical
IMDB Puanı: 6.0 6.0/10 (2,821 oy)
Life's a beach for surfers Brady and McKenzie -- until a rogue wave magically transports them inside the classic '60s beach party flick, Wet Side Story, where a full-blown rivalry between ... See full summary »
Yönetmen(ler): Jeffrey Hornaday
Yazar(lar): Vince Marcello | Mark Landry
Yıldızlar: Ross Lynch | Maia Mitchell | Grace Phipps | See full cast and crew
Kadro: Ross Lynch | Maia Mitchell | Grace Phipps | Garrett Clayton | Chrissie Fit | Barry Bostwick | Steve Valentine | Kent Boyd | William T. Loftis
Hiçbir Şey Bulunamadı.

web counter