Bu torrent için 0.4 gönderme oranı mecburidir.
Barbie ve Kiz Kardeşleri: At Binicilik Okulu 2013 BRRip XviD TR Dublaj

Genişletmek için Tıkla!
16-11-2013 14:57 , cideli37 Tarafından Yüklendi.
Kaynaklar: 1 / İndirilen: 0 / Boyut: 1.1 GB / Tamamlandı: 248
Torrenti İndir  Torrenti Şikayet Et Torrent Tanımı Tanıtım Videosu
Kategori: Türkçe Filmler > Animasyon / Türkçe
http://www.imdb.com/title/tt3321254/

Barbie ve Kiz Kardeşleri: At Binicilik Okulu 2013 BRRip XviD TR Dublaj
Tür: Animasyon
İmdb Puanı: (awaiting 5 votes)
Vizyon Tarihi: 12 Ekim 2013 (ABD)
Süre: 75 dakika
Barbie ve Kız Kardeşleri: At Binicilik Okulu 2013 ( BRRip XviD ) Türkçe Dublaj
Barbie ve kız kardeşleri, yaz mevsimini bir at binicilik okulunda geçirmek üzere İsviçre’deki görkemli Alp Dağları’na giderek keyifli bir maceraya atılırlar. Barbie, Malibu’ya götürecek yeni bir at bulmak için sabırsızlanmaktadır. Stacie muhteşem bir binici olduğunu ispatlayacağı için heyecanlanırken Chelsea’nin tek isteği büyük atlara binmektir. Skipper ise tüm bunları deneyimlemek yerine yazmakla ilgilenmektedir. Kız kardeşlerin tatili oldukça zorlu başlar ama Barbie koruda gizemli ve vahşi bir at bulduğunda gezileri büyülü bir hal alacaktır..
Genişlet Kod:

General
Complete name : C:\Users\cidelicideli\Desktop\Barbie.ve.KizKardesleri.At.Binicilik.Okulu.2013.BRRip.TR.avi
Format : AVI
Format/Info : Audio Video Interleave
File size : 1.10 GiB
Duration : 1h 14mn
Overall bit rate : 2 129 Kbps
Writing application : VirtualDubMod 1.5.4.1 (build 2178/release)
Writing library : VirtualDub build 32842/release
Video
ID : 0
Format : MPEG-4 Visual
Format profile : Advanced Simple@L5
Format settings, BVOP : No
Format settings, QPel : No
Format settings, GMC : No warppoints
Format settings, Matrix : Custom
Codec ID : XVID
Codec ID/Hint : XviD
Duration : 1h 14mn
Bit rate : 1 992 Kbps
Width : 704 pixels
Height : 400 pixels
Display aspect ratio : 16:9
Frame rate : 23.976 fps
Color space : YUV
Chroma subsampling : 4:2:0
Bit depth : 8 bits
Scan type : Progressive
Compression mode : Lossy
Bits/(Pixel*Frame) : 0.295
Stream size : 1.03 GiB (94%)
Writing library : XviD 64
Audio
ID : 1
Format : MPEG Audio
Format version : Version 1
Format profile : Layer 3
Mode : Joint stereo
Codec ID : 55
Codec ID/Hint : MP3
Duration : 1h 14mn
Bit rate mode : Constant
Bit rate : 128 Kbps
Channel count : 2 channels
Sampling rate : 48.0 KHz
Compression mode : Lossy
Stream size : 67.9 MiB (6%)
Alignment : Split accross interleaves
Interleave, duration : 42 ms (1.00 video frame)
Interleave, preload duration : 500 ms
mfg61, alesta97, dg15haz ve diger 19 kisi bunu begendi.
Barbie ve Kiz Kardeşleri: At Binicilik Okulu 2013 BRRip XviD TR Dublaj
Tür: Animasyon
İmdb Puanı: (awaiting 5 votes)
Vizyon Tarihi: 12 Ekim 2013 (ABD)
Süre: 75 dakika
Barbie ve Kız Kardeşleri: At Binicilik Okulu 2013 ( BRRip XviD ) Türkçe Dublaj
Barbie ve kız kardeşleri, yaz mevsimini bir at binicilik okulunda geçirmek üzere İsviçre’deki görkemli Alp Dağları’na giderek keyifli bir maceraya atılırlar. Barbie, Malibu’ya götürecek yeni bir at bulmak için sabırsızlanmaktadır. Stacie muhteşem bir binici olduğunu ispatlayacağı için heyecanlanırken Chelsea’nin tek isteği büyük atlara binmektir. Skipper ise tüm bunları deneyimlemek yerine yazmakla ilgilenmektedir. Kız kardeşlerin tatili oldukça zorlu başlar ama Barbie koruda gizemli ve vahşi bir at bulduğunda gezileri büyülü bir hal alacaktır..
Genişlet Kod:

General
Complete name : C:\Users\cidelicideli\Desktop\Barbie.ve.KizKardesleri.At.Binicilik.Okulu.2013.BRRip.TR.avi
Format : AVI
Format/Info : Audio Video Interleave
File size : 1.10 GiB
Duration : 1h 14mn
Overall bit rate : 2 129 Kbps
Writing application : VirtualDubMod 1.5.4.1 (build 2178/release)
Writing library : VirtualDub build 32842/release
Video
ID : 0
Format : MPEG-4 Visual
Format profile : Advanced Simple@L5
Format settings, BVOP : No
Format settings, QPel : No
Format settings, GMC : No warppoints
Format settings, Matrix : Custom
Codec ID : XVID
Codec ID/Hint : XviD
Duration : 1h 14mn
Bit rate : 1 992 Kbps
Width : 704 pixels
Height : 400 pixels
Display aspect ratio : 16:9
Frame rate : 23.976 fps
Color space : YUV
Chroma subsampling : 4:2:0
Bit depth : 8 bits
Scan type : Progressive
Compression mode : Lossy
Bits/(Pixel*Frame) : 0.295
Stream size : 1.03 GiB (94%)
Writing library : XviD 64
Audio
ID : 1
Format : MPEG Audio
Format version : Version 1
Format profile : Layer 3
Mode : Joint stereo
Codec ID : 55
Codec ID/Hint : MP3
Duration : 1h 14mn
Bit rate mode : Constant
Bit rate : 128 Kbps
Channel count : 2 channels
Sampling rate : 48.0 KHz
Compression mode : Lossy
Stream size : 67.9 MiB (6%)
Alignment : Split accross interleaves
Interleave, duration : 42 ms (1.00 video frame)
Interleave, preload duration : 500 ms
paylaşım için tesekkürler
heramis 16-11-2013 15:01
salexih, kkaplannet ve cron32 Bunu Beğendi.
çık yok ehe
cideli37 16-11-2013 19:34
salexih, kkaplannet ve cron32 Bunu Beğendi.
teşekkürler
kkaplannet 16-11-2013 23:19
salexih Bunu Beğendi.
altin degil indirmiyorum 4
raskal 18-11-2013 12:31
çokda umurumdaydı D
cideli37 18-11-2013 17:46
Emeğine sağlık indirmeye devam...........
Mazi 20-11-2013 19:38
IMDB Yenile
Barbie & Her Sisters in a Pony Tale (2013)
75 Dakika -
( Oy: Hiçbir sonuç bulunamadı.)
At a fun-filled riding academy in the Alps, Barbie and her sisters go on the vacation of a lifetime and Barbie finds the horse of her dreams.
Yönetmen(ler):
Yazar(lar):
Yıldızlar:
Kadro:
Hiçbir Şey Bulunamadı.

web counter