Bu torrent için 0.4 gönderme oranı mecburidir.
Düğün Dernek Orijinal Film Müzikleri

Genişletmek için Tıkla!
24-12-2013 19:22 , ProGamer Tarafından Yüklendi.
Kaynaklar: 6 / İndirilen: 0 / Boyut: 27.74 MB / Tamamlandı: 623
Torrenti İndir  Torrenti Şikayet Et Torrent Tanımı
Kategori: Müzik
Kategori: Müzik  > Full Albumler

Düğün Dernek Orijinal Film Müzikleri






01. Düğün Dernek
02. Entarisi Dım Dım
03. Müdür Beyin Yeşil Kürkü
04. Ne Olacak Şimdi
05. Şeker Şerbet
06. Ay Doğar Ayan Beyan
07. Dura Dura
08. Hey Güzeller
09. Tiridine Bandım




Genişlet Kod:
General
Format : MPEG Audio
File size : 5.01 MiB
Duration : 3mn 38s
Overall bit rate mode : Constant
Overall bit rate : 192 Kbps
Writing library : LAME3.99r
Audio
Format : MPEG Audio
Format version : Version 1
Format profile : Layer 3
Mode : Joint stereo
Duration : 3mn 39s
Bit rate mode : Constant
Bit rate : 192 Kbps
Channel count : 2 channels
Sampling rate : 44.1 KHz
Compression mode : Lossy
Stream size : 5.01 MiB (100%)
Writing library : LAME3.99r
Encoding settings : -m j -V 4 -q 3 -lowpass 18.6 -b 192


yarmisim, Cleverenemy , bozkurtbaha ve diger 64 kisi bunu begendi.
Bu Torrentin Etiketleri: Düğün, Dernek, Orjinal film, Müzikleri
Düğün Dernek Orijinal Film Müzikleri






01. Düğün Dernek
02. Entarisi Dım Dım
03. Müdür Beyin Yeşil Kürkü
04. Ne Olacak Şimdi
05. Şeker Şerbet
06. Ay Doğar Ayan Beyan
07. Dura Dura
08. Hey Güzeller
09. Tiridine Bandım




Genişlet Kod:
General
Format : MPEG Audio
File size : 5.01 MiB
Duration : 3mn 38s
Overall bit rate mode : Constant
Overall bit rate : 192 Kbps
Writing library : LAME3.99r
Audio
Format : MPEG Audio
Format version : Version 1
Format profile : Layer 3
Mode : Joint stereo
Duration : 3mn 39s
Bit rate mode : Constant
Bit rate : 192 Kbps
Channel count : 2 channels
Sampling rate : 44.1 KHz
Compression mode : Lossy
Stream size : 5.01 MiB (100%)
Writing library : LAME3.99r
Encoding settings : -m j -V 4 -q 3 -lowpass 18.6 -b 192


ellerin dert görmesin )
rafett 25-12-2013 10:33
cerid40, ProGamer ve BARUTGXG Bunu Beğendi.
valla ellerinize sağlık, harikasınız
angelus86 01-01-2014 18:48
cerid40 ve ProGamer Bunu Beğendi.
Film ne zaman çıkar acaba?
DogukanDogu 28-01-2014 19:48
cerid40 Bunu Beğendi.
teşekkürler

cerid40 26-02-2014 09:51
ProGamer Bunu Beğendi.
Hiçbir Şey Bulunamadı.

web counter