Bu Sunum 0.5 Oranında Seed Edilmesi Mecburdur.
Yetenek Sizsiniz Turkiye 2.Tur 03.02.2014 DVB Xvid by Exor TORA

Genişletmek için Tıkla!
03-02-2014 23:39 , Exor Tarafından Yüklendi.
Kaynaklar: 0 / İndirilen: 0 / Boyut: 833.78 MB / Tamamlandı: 129
Torrenti İndir  Torrenti Şikayet Et Torrent Tanımı
Kategori: TV Kayitlari > Türkçe / Dizi

Yetenek Sizsiniz Turkiye 2.Tur 03.02.2014 DVB Xvid by Exor TORA












Genişlet Kod:
General
Complete name : C:\Users\xxx\Desktop\RIP\Yetenek Sizsiniz Turkiye 2.Tur 03.02.2014 DVB Xvid by Exor TORA.avi
Format : AVI
Format/Info : Audio Video Interleave
File size : 834 MiB
Duration : 1h 43mn
Overall bit rate : 1 123 Kbps
Writing library : MPlayer

Video
ID : 0
Format : MPEG-4 Visual
Format profile : Advanced Simple@L5
Format settings, BVOP : Yes
Format settings, QPel : No
Format settings, GMC : No warppoints
Format settings, Matrix : Default (H.263)
Muxing mode : Packed bitstream
Codec ID : XVID
Codec ID/Hint : XviD
Duration : 1h 43mn
Bit rate : 990 Kbps
Width : 720 pixels
Height : 400 pixels
Display aspect ratio : 16:9
Frame rate : 25.000 fps
Color space : YUV
Chroma subsampling : 4:2:0
Bit depth : 8 bits
Scan type : Progressive
Bits/(Pixel*Frame) : 0.137
Stream size : 735 MiB (88%)
Writing library : XviD 64

Audio
ID : 1
Format : MPEG Audio
Format version : Version 1
Format profile : Layer 3
Mode : Joint stereo
Mode extension : MS Stereo
Codec ID : 55
Codec ID/Hint : MP3
Duration : 1h 43mn
Bit rate mode : Constant
Bit rate : 128 Kbps
Channel(s) : 2 channels
Sampling rate : 48.0 KHz
Stream size : 95.0 MiB (11%)
Alignment : Aligned on interleaves
Interleave, duration : 480 ms (11.99 video frames)
Interleave, preload duration : 960 ms

Hit & Run Kurallarındaki Değişiklikler:

Şu anda bütün sunumlarda oran 0.5'tir. 24 saat seed etme mecburiyeti kaldırılmıştır.

Sunumu kimse indirmiyorsa puanlarınız ile hit run uyarılarınızı silebilirsiniz, her sunumdan 30 dakikada 2 puan toplayabilirsiniz.

Günde 5 sunum indirseniz 24 saat seed etseniz günlük 480 puan kazanırsınız.

Ayrıca sunumlara yaptığınız beğenilerden ve sunum yorumlarından, foruma açtığınız konulardan ya da yazdığınız mesajlardan daha fazla puan toplayabilirsiniz.

Bu açıklamanın kafalardaki soru işaretlerine açıklık getirmiş olması dileklerimizle, saygılar.

TORA YÖNETİMİ

kutahya43, selenimu, tahacekirdek ve diger 11 kisi bunu begendi.
Bu Torrentin Etiketleri: Yetenek, Sizsiniz, Turkiye, Exor

Yetenek Sizsiniz Turkiye 2.Tur 03.02.2014 DVB Xvid by Exor TORA












Genişlet Kod:
General
Complete name : C:\Users\xxx\Desktop\RIP\Yetenek Sizsiniz Turkiye 2.Tur 03.02.2014 DVB Xvid by Exor TORA.avi
Format : AVI
Format/Info : Audio Video Interleave
File size : 834 MiB
Duration : 1h 43mn
Overall bit rate : 1 123 Kbps
Writing library : MPlayer

Video
ID : 0
Format : MPEG-4 Visual
Format profile : Advanced Simple@L5
Format settings, BVOP : Yes
Format settings, QPel : No
Format settings, GMC : No warppoints
Format settings, Matrix : Default (H.263)
Muxing mode : Packed bitstream
Codec ID : XVID
Codec ID/Hint : XviD
Duration : 1h 43mn
Bit rate : 990 Kbps
Width : 720 pixels
Height : 400 pixels
Display aspect ratio : 16:9
Frame rate : 25.000 fps
Color space : YUV
Chroma subsampling : 4:2:0
Bit depth : 8 bits
Scan type : Progressive
Bits/(Pixel*Frame) : 0.137
Stream size : 735 MiB (88%)
Writing library : XviD 64

Audio
ID : 1
Format : MPEG Audio
Format version : Version 1
Format profile : Layer 3
Mode : Joint stereo
Mode extension : MS Stereo
Codec ID : 55
Codec ID/Hint : MP3
Duration : 1h 43mn
Bit rate mode : Constant
Bit rate : 128 Kbps
Channel(s) : 2 channels
Sampling rate : 48.0 KHz
Stream size : 95.0 MiB (11%)
Alignment : Aligned on interleaves
Interleave, duration : 480 ms (11.99 video frames)
Interleave, preload duration : 960 ms

Teşekkürler )
kutahya43 06-07-2014 14:02
Hiçbir Şey Bulunamadı.

web counter